Trailer
[V-Z]

IMDb
http://www.imdb.com/title/tt1686784/

Info
Tên tiếng Trung: 龙门飞甲 / 新龙门客栈

Tên phiên âm: Long Men Fei Jia

Tên tiếng Anh: The Flying Swords of Dragon Gate / The Flying Swords of Dragon Gate 3D

Tên tiếng Việt: Long Môn Phi Giáp / Tân Long Môn Khách Sạn

Hãng sản xuất: China Film Group Corporation, Shanghai Media Group

Đạo diễn: Từ Khắc

Biên kịch: Từ Khắc, Hà Kí Bình, Châu Nhã Chu

Giám chế: Thi Nam Sanh, Vu Đông, Hàn Tam Bình, Lê Thụy Cương, Trần Đại Niên, Trần Vĩnh Hùng, Từ Khắc

Chỉ đạo võ thuật: Nguyên Bân, Lam Hải Hân, Tôn Kiến Khôi

Chỉ đạo nghệ thuật: Lôi Sở Hùng

Nguyên tác âm nhạc: Hồ Vĩ Lập, Lê Hoàng Giang, Cố Hâm

[b]Nhiếp ảnh: Thái Sùng Huy

[b]Dựng phim: Khâu Chí Vĩ

[b]Thiết kế mĩ thuật: Hề Trọng Văn, Lưu Mẫn Hùng

[b]Thiết kế phục trang: Lại Tuyên Ngô

[b]Ngôn ngữ:
tiếng phổ thông

Khởi chiếu: 15/12/20111

Thời lượng: 120 phút

[b]Diễn viên:

Lý Liên Kiệt - Triệu Hoài An
Trần Khôn - Vũ Hóa Điền / Phong Lý Đao
Châu Tấn - Lăng Nhạn Thu
Phạm Hiểu Huyên - Tố Tuệ Dung
Lý Vũ Xuân - Cố Thiểu Đường
Quế Luân Mĩ - Bố Lỗ Đô
Phàn Thiếu Hoàng - Từ Tiến Lương
Hàn Phi Hành - Cáp Cương
Tiết Kiếm - Lôi Sùng Chính
Trương Hình Dư - Vạn quý phi
Lưu Gia Huy - Vạn Dụ Lâu
[/b] [/b][/b][/b][/b][/b]


Diễn Viên















Release Info
Code:
Complete name : L:\Flying Swords of Dragon Gate (2011) DVDscr.XviD-JYK.avi
Format : AVI
Format/Info : Audio Video Interleave
File size : 935 MiB
Duration : 2h 1mn
Overall bit rate : 1 075 Kbps
Writing application : Lavf53.28.100

Video
ID : 0
Format : MPEG-4 Visual
Format profile : Simple@L3
Format settings, BVOP : No
Format settings, QPel : No
Format settings, GMC : No warppoints
Format settings, Matrix : Default (H.263)
Codec ID : XVID
Codec ID/Hint : XviD
Duration : 2h 1mn
Bit rate : 1 000 Kbps
Width : 720 pixels
Height : 304 pixels
Display aspect ratio : 2.35:1
Frame rate : 23.976 fps
Color space : YUV
Chroma subsampling : 4:2:0
Bit depth : 8 bits
Scan type : Progressive
Compression mode : Lossy
Bits/(Pixel*Frame) : 0.191
Stream size : 870 MiB (93%)
Writing library : XviD 64

Audio
ID : 1
Format : AC-3
Format/Info : Audio Coding 3
Mode extension : CM (complete main)
Codec ID : 2000
Duration : 2h 1mn
Bit rate mode : Constant
Bit rate : 64.0 Kbps
Channel(s) : 2 channels
Channel positions : Front: L R
Sampling rate : 48.0 KHz
Bit depth : 16 bits
Compression mode : Lossy
Stream size : 55.7 MiB (6%)
Alignment : Aligned on interleaves
Interleave, duration : 32 ms (0.77 video frame)

Nội Dung
Bộ phim được sản suất dựa trên tác phẩm nổi tiếng Dragon Inn (1992). Vào thời nhà Minh, tên thái giám tàn ác, khát khao quyền lực Hoài Ân đã ra sức đàn áp các cuộc khởi nghĩa nông dân. Hắn ta sử dụng quân đội để tiêu diệt các đạo quân còn lại tại Dragon Inn
- một nơi trú ẩn cho những tên trộm và sát thủ. Nhưng hắn không ngờ
rằng mình sẽ phải đối mặt với một vị tướng quân hùng dũng và mưu trí ở
phía trước...



Điều đáng chú ý hơn cả là Long Môn Phi Giáp có sự tham gia của một cơ số những diễn viên đình đám nhất làng điện ảnh Trung Hoa như Lý Liên Kiệt, Trần Khôn, Châu TấnQuế Lâm Mĩ. Phim hứa hẹn mang lại những màn chiến đấu hoành tráng dưới định dạng 3D vào dịp cuối tuần này




Đây là bản DVDscreen nên các bạn ko nên đòi hỏi chất lượng quá nhé ^^!















http://www.mediafire.com/?h3ww3372bc8bw
Pass Unlock:ARiT@vn-zoom.com



Subtitle
http://subscene.com/filmsearch.aspx?...of+Dragon+Gate