The Warring States 2011

Chiến Quốc


--- Encode by Mr.Ninhacc ---






Trailer
[V-Z]


INFO
Đạo diễn: Kim Sâm
Diễn viên:
Kim Hee Sun - Bàng Phi
Cảnh Điềm - Điền Tịch
Tôn Hồng Lôi - Tôn Tẫn
Ngô Trấn Vũ - Bàng Quyên
Khương Võ - Tề vương
Thể loại: Lịch sử
Nước sản xuất: Trung Quốc
Ngôn ngữ: tiếng phổ thông
Khởi quay: 3/2010
Công chiếu: 2011



MEDIA INFO
Code:
The.Warring.State.2011.DVDrip.AC-3.x264.CD1 - Mr.Ninhacc.mkv
Format : Matroska
File size : 711 MiB
Duration : 1h 0mn
Overall bit rate : 1 648 Kbps
Encoded date : UTC 2011-05-21 08:05:43
Writing application : mkvmerge v4.6.0 ('Still Crazy After All These Years') built on Mar 10 2011 02:50:32
Writing library : libebml v1.2.0 + libmatroska v1.1.0

Video
ID : 1
Format : AVC
Format/Info : Advanced Video Codec
Format profile : High@L3.0
Format settings, CABAC : Yes
Format settings, ReFrames : 5 frames
Format settings, GOP : M=17, N=31
Muxing mode : Header stripping
Codec ID : V_MPEG4/ISO/AVC
Duration : 1h 0mn
Bit rate : 1 199 Kbps
Width : 720 pixels
Height : 304 pixels
Display aspect ratio : 16:9
Frame rate : 25.000 fps
Color space : YUV
Chroma subsampling : 4:2:0
Bit depth : 8 bits
Scan type : Progressive
Bits/(Pixel*Frame) : 0.219
Stream size : 504 MiB (71%)
Writing library : x264 core 114 r1924 08d04a4


Audio
ID : 2
Format : AC-3
Format/Info : Audio Coding 3
Mode extension : CM (complete main)
Muxing mode : Header stripping
Codec ID : A_AC3
Duration : 1h 0mn
Bit rate mode : Constant
Bit rate : 448 Kbps
Channel(s) : 6 channels
Channel positions : Front: L C R, Side: L R, LFE
Sampling rate : 48.0 KHz
Bit depth : 16 bits
Compression mode : Lossy
Stream size : 193 MiB (27%)



The.Warring.State.2011.DVDrip.AC-3.x264.CD2 - Mr.Ninhacc.mkv
Format : Matroska
File size : 699 MiB
Duration : 59mn 20s
Overall bit rate : 1 648 Kbps
Encoded date : UTC 2011-05-21 08:56:21
Writing application : mkvmerge v4.6.0 ('Still Crazy After All These Years') built on Mar 10 2011 02:50:32
Writing library : libebml v1.2.0 + libmatroska v1.1.0

Video
ID : 1
Format : AVC
Format/Info : Advanced Video Codec
Format profile : High@L3.0
Format settings, CABAC : Yes
Format settings, ReFrames : 5 frames
Muxing mode : Header stripping
Codec ID : V_MPEG4/ISO/AVC
Duration : 59mn 20s
Bit rate : 1 199 Kbps
Width : 720 pixels
Height : 304 pixels
Display aspect ratio : 16:9
Frame rate : 25.000 fps
Color space : YUV
Chroma subsampling : 4:2:0
Bit depth : 8 bits
Scan type : Progressive
Bits/(Pixel*Frame) : 0.219
Stream size : 495 MiB (71%)
Writing library : x264 core 114 r1924 08d04a4


Audio
ID : 2
Format : AC-3
Format/Info : Audio Coding 3
Mode extension : CM (complete main)
Muxing mode : Header stripping
Codec ID : A_AC3
Duration : 59mn 20s
Bit rate mode : Constant
Bit rate : 448 Kbps
Channel(s) : 6 channels
Channel positions : Front: L C R, Side: L R, LFE
Sampling rate : 48.0 KHz
Bit depth : 16 bits
Compression mode : Lossy
Stream size : 190 MiB (27%)


Nội Dung
Lấy
bối cảnh lịch sử của Trung Hoa thời Chiến quốc ( 475 - 221 trước công
nguyên), bộ phim tập trung vào cuộc đấu trí giữa hai nhân vật lịch sử
là Tôn Tẫn và Bàng Quyên...



Diễn Viên Trong Phim

Cảnh Điềm - Điền Tịch




Kim Hee Sun - Bàng Phi




Tôn Hồng Lôi - Tôn Tẫn




Ngô Trấn Vũ - Bàng Quyền




Khương Võ - Tề vương







--- Encode by Mr.Ninhacc ---
Hình ảnh bản DVDrip 2CD | Khung hình 720 x 304 Pixcel



























Link Torrent
http://www.mediafire.com/?h3fky6kh21ak010




CD1
http://www.mediafire.com/?9g7sbxiz4o0cyp4
http://www.mediafire.com/?121mvrggnls8jzz
http://www.mediafire.com/?722pvxcd9577c06
http://www.mediafire.com/?2yc8c266y373sxh

Sub Việt CD1
http://www.mediafire.com/?tgv599a089jk8ei
Pass Join: Mr.Ninhacc


CD2
http://www.mediafire.com/?dwb3hpnq8qdun53
http://www.mediafire.com/?m5u9sd18zjx8ykc
http://www.mediafire.com/?51vk262clgb82ym
http://www.mediafire.com/?s5t6p4vzz7emc5k
Sub Việt CD2
http://www.mediafire.com/?wuczj2964zk6237
Pass Join: Mr.Ninhacc
nguồn:http://www.vn-zoom.com